Content creation is where it's @ Especially if your the one making it! I enjoy mapping, modeling, texturing, even some coding with the Unreal Engine UE2

  • View media
Report RSS FrAnTiC 1.2.3 Mod Theme Song
Post a comment
Sign in or join with:

Only registered members can share their thoughts. So come on! Join the community today (totally free - or sign in with your social account on the right) and join in the conversation.

Description

Music By : Matthew Stone
Background By : Me

GENERAL:
Complete name : FrAnTiC.1.2.3.Mod.wmv
Format : Windows Media
File size : 6.41 MiB
Duration : 3mn 9s
Overall bit rate mode : Variable
Overall bit rate : 284 Kbps
Maximum Overall bit rate: 328 Kbps
Movie name : FrAnTiC.1.2.3 Theme Song
Performer : Auto@Play
Encoded date : UTC 2012-01-14 21:51:02.929
Application : Windows Movie Maker 2.1.4027.0

VIDEO:
ID : 2
Format : VC-1
Format profile : MP@LL
Codec ID : WMV3
Codec ID/Info : Windows Media Video 9
Codec ID/Hint : WMV3
Description of the codec: Windows Media Video 9
Duration : 3mn 9s
Bit rate mode : Variable
Bit rate : 130 Kbps
Width : 320 pixels
Height : 240 pixels
Display aspect ratio : 4:3
Frame rate : 30.000 fps
Resolution : 8 bits
Scan type : Progressive
Bits/(Pixel*Frame) : 0.056
Stream size : 2.93 MiB (46%)
Language : English (US)

AUDIO:
ID : 1
Format : WMA
Format version : Version 2
Codec ID : 161
Codec ID/Info : Windows Media Audio
Description of the codec: Windows Media Audio 9
- VBR Quality 75, 44 kHz, stereo 1-pass VBR
Duration : 3mn 9s
Bit rate mode : Variable
Bit rate : 147 Kbps
Channel(s) : 2 channels
Sampling rate : 44.1 KHz
Resolution : 16 bits
Stream size : 3.31 MiB (52%)
Language : English (US)

Details
Date
Duration
Size
320×240
Filename
FrAnTiC.1.2.3.Mod.Theme.wmv
Options
URL
Embed
Share
Feed
RSS
Report
Report